#TITLE:The Heaven (Remix);
#SUBTITLE:;
#ARTIST:DJ.Taka;
#TITLETRANSLIT:The Heaven (Remix);
#SUBTITLETRANSLIT:;
#ARTISTTRANSLIT:DJ.Taka;
#CREDIT:;
#BANNER:heaven-bn.jpg;
#BACKGROUND:heaven-bg.jpg;
#LYRICSPATH:;
#CDTITLE:heaven.png;
#MUSIC:The Heaven (Remix).ogg;
#OFFSET:-0.020;
#SAMPLESTART:87.920;
#SAMPLELENGTH:20.000;
#SELECTABLE:YES;
#BPMS:0.000=171.000;
#STOPS:;
#BGCHANGES:;
// cache tags:
#FIRSTBEAT:4.000;
#LASTBEAT:320.000;
#SONGFILENAME:Songs/Music V.I.P ^_^/The Heaven (Remix)/The Heaven (Remix).sm;
#HASMUSIC:1;
#HASBANNER:1;
#MUSICLENGTH:114.879;
// end cache tags

//---------------dance-single - ----------------
#NOTES:
     dance-single:
     :
     Hard:
     17:
     1.000,1.000,1.000,0.078,1.000,901.000,316.000,9.000,0.000,13.000:
0000
0000
0000
0000
,
0100
0001
0010
1000
0100
1000
0010
1000
,
0010
0000
0001
0000
0100
0000
1000
0000
0110
0000
0100
0010
1000
0000
0110
0000
,
1101
0010
0100
1000
0011
0000
0010
0100
1010
0001
0100
1000
0011
1000
0010
0100
,
1010
0001
0100
1000
0011
0000
1000
0100
1010
0001
0100
1000
0011
1000
0010
0100
,
1010
0001
0010
1000
0011
0000
1000
0100
1010
0001
0010
1000
0011
1000
0010
0100
,
1010
0001
0100
1000
0011
0000
1000
0100
1010
0001
0100
1000
0011
0100
0001
0010
,
1100
0010
0001
1000
0101
0000
0100
0010
1100
0010
0001
1000
0101
0010
0100
0001
,
1100
0001
0010
1000
0101
0000
0010
0001
1100
0010
0100
1000
0101
0010
1000
0001
,
1100
0001
0010
1000
0101
0000
0001
0010
1100
0001
0010
1000
0101
1000
0001
0010
,
1100
0010
0001
1000
0101
0000
0010
0001
0011
0100
0011
1000
0110
0001
1010
0001
,
1100
0011
0110
1001
0101
1100
0011
1010
,
0101
1100
1001
0110
0101
1010
0011
1100
,
0101
0011
1010
1100
1001
0110
1001
0101
,
1001
1100
0011
1010
0101
1010
0110
1001
,
0101
0011
1001
1100
0101
1010
0101
0110
,
1001
1010
0101
1100
0011
1010
0101
1010
,
0101
1000
0110
0101
1001
0100
1001
0100
,
0101
0000
0000
1000
0010
0000
0001
0000
1100
0000
0110
0000
1100
0000
0011
0000
,
1100
0000
0011
0000
0101
0000
1010
0000
0101
0000
1100
0010
0000
0110
0001
0000
,
1010
0000
0101
0000
0011
0000
1100
0000
0101
0000
1010
0001
0000
0011
0100
0000
,
1010
0000
0011
0000
0110
0000
1100
0000
0101
0000
0110
1000
0000
0110
0001
0000
,
1010
0000
0101
0000
1010
0000
0110
0000
1001
0110
0000
1001
0100
0000
1011
0000
,
0110
0000
0101
0000
0010
0000
1001
0000
0100
0000
0110
1000
0000
0000
0001
0000
,
0100
0000
0011
0000
0100
0000
1001
0000
0010
0000
1100
0001
0000
0000
0100
0000
,
1100
0010
1001
0010
0011
0100
1001
0100
,
0001
0010
0001
0000
0010
0100
0010
0000
0100
1000
0100
1000
0010
1000
0011
0000
,
1011
0100
0001
0010
1000
0100
0001
0010
1000
0100
0001
0010
1000
0100
0001
0010
,
0100
1000
0010
0001
1000
0010
0001
0100
1000
0100
0010
0001
1000
0100
0001
0010
,
0100
1000
0010
0001
0100
1000
0010
0001
0100
1000
0010
0001
0100
1000
0001
0100
,
0010
1000
0010
0001
0100
1000
0001
0010
1001
0010
0101
0010
1001
0010
1100
0000
,
1120
0000
0001
0000
0100
0001
0000
1000
0000
0000
0001
0000
0100
0000
1000
0000
,
0001
0000
0000
1000
0000
0000
0100
0000
0000
0001
0000
0000
0100
0000
1030
0000
,
1200
0000
0010
0000
1000
0010
0000
0001
0000
0000
0010
0000
1000
0000
0010
0000
,
2301
0000
0000
0010
0000
0000
0100
0000
0000
0001
0000
0000
0010
0000
3001
0000
,
2100
0000
0010
0000
0100
0010
0000
0001
0000
0000
0010
0000
0100
0000
0010
0000
,
0001
0000
0000
0010
0000
0000
0100
0000
0000
0010
0000
0000
0100
0000
3100
0000
,
1012
0000
0100
0000
1000
0100
0000
0010
0000
0000
1000
0000
0100
0000
0010
0000
,
1123
0000
0000
0001
0000
0000
0100
0000
1230
0001
0000
0000
0010
0000
1000
0000
,
1301
0000
0010
0000
0100
0010
0000
0001
0000
0000
0010
0000
0100
0000
1000
0000
,
0001
0000
0000
0010
0000
0000
0100
0000
0000
1000
0000
0000
0001
0000
0010
0000
,
1000
0000
0100
0000
1000
0100
0000
0010
0000
0000
0100
0000
1000
0000
0100
0000
,
0010
0000
0000
0100
0000
0000
1000
0000
0000
0100
0000
0000
0010
0000
0001
0000
,
1100
0000
0010
0000
0100
0010
0000
0001
0000
0000
0010
0000
0100
0000
1000
0000
,
1001
0000
0000
0010
0000
0000
0100
0000
0000
0010
0000
0000
0100
0000
1000
0000
,
1001
0000
0010
0000
0100
0010
0000
0001
1010
0000
0100
0000
0010
0000
0001
0000
,
1010
0000
0000
0101
0000
0000
0110
0000
0000
1010
0000
0000
0101
0100
0110
0100
,
1010
0100
0001
0010
1001
0100
0010
0100
1001
0010
0100
0001
1010
0100
0010
0001
,
1100
0001
0010
0001
1010
0100
0010
1000
0101
0010
0100
0001
1010
0100
0001
0010
,
0101
1000
0001
0010
1001
0100
0010
0001
1100
0010
1000
0001
0110
1000
0010
0001
,
1010
0001
0100
0001
1010
0001
0100
0010
0101
1000
0001
0010
1100
0001
0010
0100
,
1010
0001
0100
0010
1001
0100
0010
0100
1001
0010
0100
0001
1010
0100
0010
0001
,
0110
1000
0001
0010
1100
0001
0100
0010
1001
0100
0010
0100
1001
0100
0010
0001
,
1010
0100
0001
0100
0011
1000
0010
1000
0101
0010
0100
0001
0110
1000
0010
0001
,
1010
0001
0100
0001
1100
0010
1000
0001
1100
0001
0100
0010
0001
0000
0110
0110
,
1001
0010
0001
0100
0011
1000
0100
0000
1001
0010
1000
0010
1001
0100
0010
0100
,
1001
0010
1000
0010
1001
0010
0100
0001
1010
0001
0100
0010
1001
0010
0100
0001
,
1010
0001
1000
0001
1010
0001
0100
0001
0110
1000
0010
0001
1100
0010
1000
0010
,
1001
0100
0010
1000
0011
0100
1000
0001
1010
0001
0100
1000
0110
0001
0100
0001
,
1010
0100
0010
0100
0001
1000
0010
1000
0001
1000
0010
0001
1000
0001
0100
0010
,
1100
0010
0001
0100
0001
0100
0010
1000
0011
1000
0100
0001
1000
0001
0100
1000
,
0011
1000
0010
0100
1000
0001
0100
0001
1100
0010
0100
0001
1000
0010
0001
1000
,
0110
0000
0000
0000
0110
0000
0001
0000
1000
0100
0010
0001
1000
0100
0010
0001
1000
0000
0000
0000
1011
0000
0000
0000
1011
0000
0000
0000
1011
0000
0000
0000
,
1100
0010
0001
0010
0101
1000
0100
0010
1001
0010
0100
1000
0011
1000
0100
0001
,
0110
1000
0001
1000
0011
1000
0100
0001
1010
0001
1000
0010
1100
0001
0010
0001
,
1010
0100
0010
0001
1100
0010
0001
0010
1001
0100
0010
1000
0101
1000
0010
1000
,
0110
0001
1000
0010
0101
1000
0010
0100
0011
1000
0100
1000
0101
1000
0011
1000
,
0011
0100
1000
0010
0101
1000
0010
0100
1001
0010
0100
0010
1001
0100
0001
0010
,
1100
0001
1000
0001
0110
0001
0010
0100
1001
0100
0001
1000
0110
0001
1000
0001
,
1010
0100
0001
1000
0101
0010
0001
1000
0110
0001
0100
0010
1100
0001
0100
0001
,
1010
0100
0001
0010
1100
0010
0001
0100
1010
0001
1000
0010
1001
0010
0001
0001
,
1100
0011
0110
1100
0101
1010
0011
0101
,
1001
0110
1001
1100
0101
1010
0110
1100
,
0110
0011
0101
1001
0101
0110
0101
1010
,
0011
0000
1100
0000
0101
0000
1010
0000
0101
0000
0110
0000
0101
0000
1100
0100
,
1011
0101
1010
1100
0101
1010
0110
1001
,
1010
0101
1001
0110
1010
1001
0011
1100
,
0011
1100
0110
0011
1001
0110
0101
1100
,
0011
0000
1001
0000
1010
0000
1100
0000
0000
0000
1001
0000
0110
1001
0110
1001
,
0220
0000
0000
0000
,
0330
0000
0000
0000
;
